<?xml version="1.0" standalone="no"?>
<!DOCTYPE svg PUBLIC "-//W3C//DTD SVG 1.1//EN" "http://www.w3.org/Graphics/SVG/1.1/DTD/svg11.dtd" >
<svg xmlns="http://www.w3.org/2000/svg">
<metadata>
Created by FontForge 20120731 at Wed Jan 18 16:48:19 2017
 By admin
</metadata>
<defs>
<font id="iconfont" horiz-adv-x="1024" >
  <font-face 
    font-family="iconfont"
    font-weight="500"
    font-stretch="normal"
    units-per-em="1024"
    panose-1="2 0 6 3 0 0 0 0 0 0"
    ascent="896"
    descent="-128"
    x-height="792"
    bbox="0 -202 1024 896"
    underline-thickness="0"
    underline-position="0"
    unicode-range="U+0078-E6EE"
  />
<missing-glyph 
 />
    <glyph glyph-name=".notdef" 
 />
    <glyph glyph-name=".notdef" 
 />
    <glyph glyph-name=".null" horiz-adv-x="0" 
 />
    <glyph glyph-name="nonmarkingreturn" horiz-adv-x="341" 
 />
    <glyph glyph-name="x" unicode="x" horiz-adv-x="1001" 
d="M281 543q-27 -1 -53 -1h-83q-18 0 -36.5 -6t-32.5 -18.5t-23 -32t-9 -45.5v-76h912v41q0 16 -0.5 30t-0.5 18q0 13 -5 29t-17 29.5t-31.5 22.5t-49.5 9h-133v-97h-438v97zM955 310v-52q0 -23 0.5 -52t0.5 -58t-10.5 -47.5t-26 -30t-33 -16t-31.5 -4.5q-14 -1 -29.5 -0.5
t-29.5 0.5h-32l-45 128h-439l-44 -128h-29h-34q-20 0 -45 1q-25 0 -41 9.5t-25.5 23t-13.5 29.5t-4 30v167h911zM163 247q-12 0 -21 -8.5t-9 -21.5t9 -21.5t21 -8.5q13 0 22 8.5t9 21.5t-9 21.5t-22 8.5zM316 123q-8 -26 -14 -48q-5 -19 -10.5 -37t-7.5 -25t-3 -15t1 -14.5
t9.5 -10.5t21.5 -4h37h67h81h80h64h36q23 0 34 12t2 38q-5 13 -9.5 30.5t-9.5 34.5q-5 19 -11 39h-368zM336 498v228q0 11 2.5 23t10 21.5t20.5 15.5t34 6h188q31 0 51.5 -14.5t20.5 -52.5v-227h-327z" />
    <glyph glyph-name="kefu" unicode="&#xe600;" 
d="M510 673q-117 0 -199.5 -81t-82.5 -195.5t82.5 -195.5t199.5 -81t200 81t83 195.5t-83 195.5t-200 81zM184 291v255q-5 0 -10 -1q44 96 134.5 155t201.5 59t202 -59t135 -155q-5 1 -11 1v-255q54 0 92.5 37t38.5 90q0 36 -18 65.5t-49 46.5q-43 120 -149.5 195.5
t-240 75.5t-240.5 -75.5t-149 -195.5q-31 -17 -49 -46.5t-18 -65.5q0 -53 38 -90t92 -37zM792 144q-56 -51 -128.5 -79.5t-153 -28.5t-153 28t-128.5 80q-102 -52 -160.5 -140.5t-58.5 -205.5h1004q0 118 -59 206.5t-163 139.5z" />
    <glyph glyph-name="icon08" unicode="&#xe613;" 
d="M512 -142q-45 0 -80 27t-47 69q-6 18 -6 37q0 11 7.5 18.5t18 7.5t18 -7.5t7.5 -18.5q0 -12 4 -23q7 -26 29 -42.5t49 -16.5t48.5 16t29.5 41q4 12 4 25q0 11 7.5 18.5t18 7.5t18 -7.5t7.5 -18.5q0 -20 -6 -40q-13 -41 -47 -67q-36 -26 -80 -26zM834 34h-643
q-31 0 -52.5 22t-21.5 53t21.5 52.5t52.5 21.5h35q12 4 19.5 13.5t7.5 21.5v252h1q9 87 67 151t142 80v2q0 21 15 36t35.5 15t35 -15t14.5 -36v-2q85 -16 143 -80t66 -151h2v-23v-1v0v-1v-226q0 -12 7.5 -22t19.5 -14h33q30 0 52 -21.5t22 -52.5t-22 -53t-52 -22zM191 132
q-10 0 -16.5 -6.5t-6.5 -16.5t6.5 -16.5t16.5 -6.5h643q9 0 16 6.5t7 16.5t-7 16.5t-16 6.5h-38l-3 1q-31 6 -51 30.5t-20 55.5v200v0v26v1v0q0 81 -54 140t-133 68l-22 2l-21 -2q-80 -9 -133 -68q-55 -59 -55 -140v0v-1l1 -26h-1v-202v0q0 -31 -20 -55q-20 -23 -50 -29
l-2 -1h-41z" />
    <glyph glyph-name="12" unicode="&#xe605;" 
d="M511 -146q-91 0 -173.5 35.5t-142.5 95t-95.5 142.5t-35.5 173.5t35.5 173.5t95.5 142.5t142.5 95t173.5 35.5v-56q-106 0 -196 -52t-142.5 -142t-52.5 -196t52.5 -196.5t142.5 -142.5t196 -52t196 52t142.5 142.5t52.5 196.5h55q0 -91 -35 -174t-95 -142.5t-142.5 -95
t-173.5 -35.5zM754 607q-45 36 -98 56l11 27l-11 -26q-69 27 -145 27v56q86 0 166 -32q60 -24 112 -65zM491 97l-221 221l40 40l181 -182l386 386l40 -39zM162 226q-1 7 -2 20t0.5 49.5t8.5 71t28 79t53 80.5t88 68.5t129 49.5l13 -54q-63 -15 -111 -42t-75.5 -57t-45.5 -67
t-24.5 -66t-8 -59.5t-0.5 -43t2 -20.5z" />
    <glyph glyph-name="qianming" unicode="&#xe646;" 
d="M66 141q-2 -6 0.5 -9t8.5 -1l158 44q6 1 7 5.5t-3 8.5l-103 110q-4 4 -8.5 3t-6.5 -7zM182 362q-10 -10 0 -20l106 -109q10 -10 21 0l375 357q11 10 1 21l-103 109q-10 11 -21 1zM715 846q-10 11 -20 1l-69 -61q-10 -10 0 -20l108 -110q11 -10 21 0l63 60q10 10 0 21z
M63 65h834v-67h-834v67z" />
    <glyph glyph-name="goumai" unicode="&#xe6c9;" 
d="M237 612l132 -376l-28 20h549q12 0 20.5 -8.5t8.5 -21t-8.5 -21t-20.5 -8.5h-549q-20 0 -27 20l-205 584l28 -19h-59q-13 0 -21.5 8.5t-8.5 20.5t8.5 20.5t21.5 8.5h59q20 0 27 -20l53 -150h711q14 0 22.5 -11t5.5 -24l-46 -228q-5 -20 -26 -23l-431 -48
q-12 -1 -21.5 6.5t-11 19.5t6 21.5t19.5 10.5l411 47q21 97 36 170q0 1 -80 1h-206h-209.5h-160.5v0zM407.5 78q17.5 0 30 -12.5t12.5 -30t-12.5 -30t-30 -12.5t-30 12.5t-12.5 30t12.5 30t30 12.5zM407 133q-40 0 -69 -28.5t-29 -69t29 -69.5t69.5 -29t69.5 29t29 69.5
t-29 69t-70 28.5v0zM816.5 78q17.5 0 30 -12.5t12.5 -30t-12.5 -30t-30 -12.5t-30 12.5t-12.5 30t12.5 30t30 12.5zM816 133q-40 0 -69 -28.5t-29 -69t29 -69.5t69.5 -29t69.5 29t29 69.5t-29 69t-70 28.5v0zM816 -63z" />
    <glyph glyph-name="contract" unicode="&#xe61e;" 
d="M658 -43h-483q-46 0 -78.5 32.5t-32.5 78.5v632q0 46 32.5 78.5t78.5 32.5h483q46 0 78.5 -32.5t32.5 -78.5v-202q0 -15 -11 -26t-26 -11t-26 11t-11 26v202q0 15 -11 26t-26 11h-483q-15 0 -26 -11t-11 -26v-632q0 -15 11 -26t26 -11h483q15 0 26 11t11 26v72
q0 15 11 26t26 11t26 -11t11 -26v-72q0 -46 -32.5 -78.5t-78.5 -32.5v0zM881 555l-262 -263l-19 -106l101 31l259 259zM249 161q-5 0 -9 3q-6 3 -8.5 10.5t1.5 14.5q17 29 31.5 52t25.5 36.5t21 24t16 14t12 6.5t9 2t6 -1q20 -3 25 -28q4 -19 6 -53v-11l14 15
q17 18 25.5 26.5t19 14t20.5 3.5q19 -5 26 -31q4 -14 2 -29q4 1 10 4t13.5 0.5t10.5 -9.5t0.5 -14.5t-9.5 -10.5q-17 -8 -26 -11t-17.5 -3.5t-14.5 4.5q-11 10 -6 32q4 17 1 27v0q-7 -6 -28 -28l-15 -17q-24 -26 -42 -19q-13 4 -16.5 16t-4.5 38q-2 29 -4 43
q-31 -27 -78 -111q-6 -10 -17 -10zM212 588h409v-37h-409v37zM212 514h409v-37h-409v37zM212 440h334v-37h-334v37z" />
    <glyph glyph-name="zhibo" unicode="&#xe618;" 
d="M621 308q0 -14 -9.5 -23.5t-23.5 -9.5h-354q-13 0 -22.5 9.5t-9.5 23.5v183q0 14 9.5 23.5t22.5 9.5h354q14 0 23.5 -9.5t9.5 -23.5v-183zM644 415q-8 -6 -8 -15.5t8 -15.5q3 -2 19 -11.5t25 -15.5q46 -28 75 -46q3 -1 17 -10q15 -10 22 -10q9 0 14.5 6.5t5.5 15.5v173
q0 9 -6 15t-15 6q-4 0 -8 -1zM512 896q-139 0 -257 -68.5t-186.5 -186.5t-68.5 -257t68.5 -257t186.5 -186.5t257 -68.5t257 68.5t186.5 186.5t68.5 257t-68.5 257t-186.5 186.5t-257 68.5zM512 -81q-95 0 -181 36.5t-148.5 99t-99 148.5t-36.5 181t36.5 181t99 148.5
t148.5 99t181 36.5t181 -36.5t148.5 -99t99 -148.5t36.5 -181t-36.5 -181t-99 -148.5t-148.5 -99t-181 -36.5z" />
    <glyph glyph-name="yuyue" unicode="&#xe666;" 
d="M511.5 896q-104.5 0 -199 -40.5t-163 -109t-109 -163t-40.5 -199t40.5 -199t109 -163t163 -109t199 -40.5t199 40.5t163 109t109 163t40.5 199t-40.5 199t-109 163t-163 109t-199 40.5zM511.5 -76q-93.5 0 -179 36.5t-147 98t-98 147t-36.5 179t36.5 179t98 147t147 98
t179 36.5t179 -36.5t147 -98t98 -147t36.5 -179t-36.5 -179t-98 -147t-147 -98t-179 -36.5zM572 511q-73 0 -104 3q6 -28 6 -64v-176q-3 -45 -8 -59h70q-3 36 -3 81v168h181v-179q0 -36 -5 -73h70q-6 31 -6 76v142q0 37 6 76q3 8 3 11q-42 -6 -73 -6h-87q28 98 28 95
q123 0 159 -5v59q-3 -1 -97 -3h-179q-45 0 -65 5v-64q26 8 70 8h48v-2q-3 -25 -14 -93zM809 660v0v0zM633 179q65 -45 140 -123l48 47q-45 42 -146 118zM656 405q3 6 3 9q-6 11 -70 5q2 -162 -37 -215q-33 -59 -173 -101q36 -22 53 -47q134 59 171 120q39 48 44 196
q3 22 9 33zM429 330q23 84 37 123q2 2 -3 2q-1 1 -3 1h-22q-36 -3 -73 -3l-25 33q98 140 106 165q3 6 -3 6q-14 -3 -131 -3q-92 0 -117 3v-53h25q31 2 58 2h87l-53 -89q-6 8 -45 48l-44 -26q25 -19 64 -67q11 -14 17 -19q-104 0 -135 3v-51h26q36 3 86 3v-254q3 -28 -67 -17
q11 -22 17 -59q114 11 106 67v263h64l-28 -73z" />
    <glyph glyph-name="guanjiaowangtubiao06" unicode="&#xe685;" 
d="M371 273q34 -93 64 -157q24 -50 29 -46q1 1 1 3q26 85 26 102q0 7 -8.5 18t-13.5 20t0 26q10 23 34.5 30t46.5 -8q21 -12 22.5 -25.5t-9.5 -34.5l-17 -47l30 -85l90 196q12 30 80 -24q78 -62 131 -151q45 -74 40 -124q-6 -37 -91 -61t-202.5 -29t-234 -1.5t-197.5 18.5
t-81 35q0 257 260 345v0zM533 896q7 0 17.5 -2t16.5 -2v-60q0 -13 13 -13h26q13 0 13 13v38q61 -29 99 -86t41 -127h43v-42h-584v42h34q3 69 40.5 126.5t95.5 86.5v-38q0 -13 13 -13h26q13 0 13 13v55q25 9 38 9v-158q0 -13 13 -13h25q13 0 13 13v158h4zM277 644
q0 -9 -1 -25.5t1 -60.5t8.5 -81t25.5 -76.5t47 -58.5q53 -35 99.5 -49t93.5 -6t93 42q66 45 84 89t14 124q-2 42 -2 68.5t1 32.5l1 6zM303 623h414v-94q3 -66 -13.5 -105.5t-76.5 -81.5q-65 -41 -124.5 -37t-131.5 49q-24 17 -39.5 51t-21 70t-7.5 70t-1 56l1 22v0zM277 606
q-20 2 -32.5 -11.5t-12.5 -31t7 -34.5q8 -11 21.5 -21.5t23.5 -15.5l11 -5l-5 34q-1 -1 -3 -2t-7.5 -2t-10.5 0.5t-10 7.5t-7 17q-3 14 2 26t12 17t11.5 11.5t-0.5 9.5v0zM747 606q20 2 32.5 -11.5t12.5 -31t-7 -34.5q-8 -11 -20.5 -21.5t-21.5 -15.5l-9 -5l4 29q1 0 3 -1
t8 -2t10.5 0.5t9.5 7.5t7 17q2 16 -4 28.5t-13.5 18t-12 12t0.5 9.5v0zM747 606z" />
    <glyph glyph-name="celiang-copy" unicode="&#xe604;" 
d="M921 630l-231 231l-587 -587l231 -231zM660 773l144 -144l-29 -29l-144 144zM572 685l87 -86l-30 -30l-86 87zM484 597l87 -86l-30 -30l-86 87zM396 509l87 -86l-30 -30l-86 87zM308 421l87 -86l-30 -30l-86 87zM220 333l144 -144l-29 -29l-144 144zM137 -93h784v68h-784
v-68zM137 -93z" />
    <glyph glyph-name="zhifu" unicode="&#xe62b;" 
d="M604 634l-78 -173h-16l-78 173h-48l79 -173h-79v-47h110v-31v-47h-110v-47h110v-78h48v78h110v47h-110v78h47h63v47h-79l79 173h-48zM877 782q-5 3 -13 7t-35.5 12t-64.5 14.5t-104 11t-148.5 4.5t-148 -4.5t-103.5 -11t-65 -14.5t-36 -12t-12 -7q-18 -13 -18 -35v-364
q0 -46 20 -94.5t49 -88.5t69.5 -81t75 -69t71.5 -54.5t52.5 -36.5t24.5 -15t20.5 -5t20.5 5t25 15t53 36.5t71.5 54.5t74.5 69t69.5 81t49 88.5t19.5 94.5v364q0 22 -17 35zM860 383q0 -42 -19.5 -87t-48 -82.5t-68 -76.5t-72 -65.5t-69 -52t-48.5 -33.5t-21 -13h-2h-3
q-8 5 -20.5 13t-49 33.5t-68.5 52t-72 65.5t-68.5 76.5t-48 82.5t-19.5 87v364q0 5 4 7q1 2 8.5 5.5t33.5 10.5t61 12.5t99.5 10t142.5 4.5t142 -4.5t99 -10t61.5 -13t33 -10.5t8.5 -4q4 -3 4 -8v-364z" />
    <glyph glyph-name="goutong" unicode="&#xe65d;" 
d="M630 -29l-1 1h-1h-1h-1h-1l-2 1v0h-1l-1 1h-1l-2 1l-1 1l-231 169q-1 1 -3 1h-207q-46 0 -79 33t-33 79v234q0 47 33 80t79 33h468q47 0 79.5 -33t32.5 -80v-234q0 -46 -32.5 -79t-79.5 -33h-8q-3 0 -4.5 -1.5t-0.5 -3.5l24 -141l1 -1v-2v-2v-1l-1 -2v-2v-1l-1 -2v-1
l-1 -1v-1l-1 -2l-1 -1l-1 -1l-1 -1l-1 -1v0l-1 -1l-1 -1q-1 -1 -2 -1l-1 -1h-1l-2 -1l-2 -1h-3h1h-2l-1 -1h-1h-2zM200 556q-36 0 -61.5 -25.5t-25.5 -61.5v-187q0 -36 25.5 -61.5t61.5 -25.5h192q8 0 14 -4v-1q2 0 4 -2l177 -130h3h2q3 2 3 5l-18 101q-1 4 -1 7q0 10 7 17
t17 7h21q36 0 61 25.5t25 61.5v187q0 36 -25 61.5t-61 25.5h-421zM823 339q-10 0 -17 7t-7 17t7 17t17 7v0q36 1 61.5 26t25.5 61v187q0 36 -25.5 61.5t-61.5 25.5h-421q-36 0 -61.5 -25.5t-25.5 -61.5q0 -10 -7.5 -17t-17.5 -7t-17 7t-7 17v24q0 46 33 79t79 33h468
q47 0 79.5 -33t32.5 -79v-234q0 -47 -32.5 -79.5t-79.5 -32.5h-23zM524 351q-10 0 -17 7t-7 17t7 17.5t17 7.5t17.5 -7.5t7.5 -17.5t-7.5 -17t-17.5 -7zM407 351q-10 0 -17 7t-7 17t7 17.5t17 7.5t17.5 -7.5t7.5 -17.5t-7.5 -17t-17.5 -7zM290 351q-10 0 -17 7t-7 17t7 17.5
t17 7.5t17.5 -7.5t7.5 -17.5t-7.5 -17t-17.5 -7z" />
    <glyph glyph-name="qianshou" unicode="&#xe6ee;" 
d="M505 -9h-272q-37 0 -62.5 25t-25.5 62v641q0 37 25.5 62.5t62.5 25.5h540q37 0 62.5 -25.5t25.5 -62.5v-383h-35v383q0 22 -15 37t-38 15h-540q-23 0 -38 -15t-15 -37v-642q0 -23 15 -38t38 -15h272v-33v0zM726 570h-437v35h437v-35zM726 403h-437v35h437v-35zM503 234
h-214v36h212l2 -36v0zM705 -32q-75 0 -127 52.5t-52 126.5t52.5 126.5t126.5 52.5t126.5 -52.5t52.5 -126.5q-2 -74 -54.5 -126.5t-124.5 -52.5zM705 291q-61 0 -102.5 -42.5t-41.5 -101.5q0 -61 42 -102.5t102 -41.5t102 42t42 102q-2 59 -43.5 101.5t-100.5 42.5zM613 122
l25 25l70 -70l-24 -25zM689 48l-26 25l126 126l24 -24z" />
    <glyph glyph-name="zhibo1" unicode="&#xe655;" 
d="M939 640l-171 -85v85q0 35 -25 60t-60 25h-598q-35 0 -60 -25t-25 -60v-512q0 -35 25 -60t60 -25h598q35 0 60 25t25 60v85l171 -85q35 0 60 25t25 60v342q0 35 -25 60t-60 25zM683 128h-598v512h598v-512zM939 222l-133 68q-25 9 -38 9v170q13 0 38 9l133 68v-324z" />
    <glyph glyph-name="bao" unicode="&#xe606;" 
d="M737 777q-54 10 -97 26.5t-66.5 32t-39.5 29.5t-21 22l-5 9q-4 -4 -13 -10.5t-35.5 -24.5t-52 -33t-61 -30t-65.5 -21q-48 -10 -102.5 -12.5t-84.5 -0.5l-30 2q11 -272 11 -489q0 -44 24 -89.5t62 -83t84.5 -72t92 -60.5t85 -46t62 -29.5t23.5 -10.5q10 4 25.5 11
t60.5 30t86 47t91 60.5t86 73t61 81.5t25 88q0 97 2.5 219t5.5 196l3 74q-109 -11 -217 11zM889 293q0 -37 -21 -75t-54.5 -70t-74 -62t-81 -53t-74.5 -40t-54.5 -26t-21.5 -9v0q-7 4 -21 9.5t-53.5 24.5t-75.5 39.5t-79.5 51.5t-75.5 62.5t-53.5 70.5t-21.5 77
q0 83 -2.5 187.5t-4.5 167.5l-2 64q95 -10 190 9q42 8 92 33.5t79 47.5l28 21q2 -2 5 -7t17.5 -19t34.5 -26t58.5 -26.5t85.5 -23.5q42 -8 89.5 -10.5t74.5 -0.5l26 2q-10 -233 -10 -419zM370 629h-76q-1 -4 -3 -11.5t-10 -28t-19 -38.5t-32.5 -38t-47.5 -32v-36
q54 14 65 23v-271h78v327q38 60 45 105zM788 627v-98q0 -19 -7 -32.5t-17.5 -19.5t-21 -9.5t-17.5 -3.5l-8 -1h-68v-41h180v-42h-83q5 -24 15 -45.5t21 -34.5t21 -23t16 -14l7 -4v-37q-42 13 -72.5 34.5t-44.5 42t-22 39.5t-9 31l-1 11h-28v-182h-81v182h-28
q-3 -36 -20 -65.5t-38.5 -46t-42 -28t-34.5 -14.5l-14 -4v36q33 24 53.5 54t23.5 49l3 19h-82v41h180v43h-134v163h353zM522 504h136l34 1q15 0 22 8.5t6 16.5l-1 8v48h-198z" />
  </font>
</defs>
</svg>
